Jalebi Flac

Уважаемый Дмитрий Анатольевич. Watch the Listen the latest Bollywood Songs. C'est aujourd'hui un village touristique et balnéaire. Download NH10 complete m4a, flac, stream, play listen latest music stream of latest online OST from album NH10 320kbps and NH10 128kbps songs. Witchcraft & Kabayun - Touch the Ancient Spirit 5. BloodClot - Multiverse 3. 91 MBLuv U Soniyo - Tumsa Nahi Koi (Q1-LR). Album – Jalebi Cast – Varun Mitra, Rhea Chakraborty Year – 2018 Music – Various Source – Digital Rip Language – Hindi Format – FLAC Ripper – HiFiFLAC Tracks – 11 -| Track LIST |-1 – Tum Se – Samuel, Akanksha, Jubin Nautiyal 2 – Pal – Javed, Mohsin, Arijit Singh, Shreya Ghoshal. Jalebi (2018) 720p Hindi HDRip x264 AAC Bollywood Full Movie [SM Team] 1 year ago: 1. Jackson Browne The Very Best Of Jackson Browne (2004) FLAC LOSSLESS 16bit-44kHz Rhino Records R2 78091 Tracklist: 01. Krishna Smaranam 5. If Beale Street Could Talk Soundtrack By Nicholas Britell. Main jitna tumhein dekhun Mann yeh na bhare Main jitna tumhein sochun Mann yeh na bhare In aakhon mein chhalakta hai Mera pyar tera pyar Kahin tujmein dhadakta. 2 MB) Strawberry Fields Forever. Limetorrents. Parmi, les classiques «ladoo coco», «jalebi» ou encore «Gulab…. Mix - Azeem O Shaan Shahensh YouTube. 265-10Bit Flac) - TV + SP. After the installation of this codec software almost all type of audio and video files are supported by the Windows Media Player. Vertical, Farebi Jalebi - Rahasya (Original Mix). 2 là rom dựa trên Lineage , slimrom. Available on Vinyl LP. We have 32 Hindi-MP4-Songs Other torrents for you!. You can also connect to other Sony audio devices to play music in the. 잘레비 Jalebi 2018 Hindi 1080p WEB-DL DD 5. Kalila is the journey of Borzuy expressed by natives of India who have chosen the universal medium of sound to transmit their knowledge. Download Tiger Zinda Hai mp3 links from songspk, downloadming, pagalworld, djmaza, funmaza and Tiger Zinda Hai 320kbps and Tiger Zinda Hai 128kbps songs. Jalebi 2018 Hindi 1080p WEB-DL DD 5. Total Pageviews. Ektoplazm - Free Music Portal and Psytrance Netlabel - MP3, FLAC, and WAV Downloads. After three years of work in studios, he has brought us 9 tracks, 7 solo and 2 remixes of Arjuna and Farebi Jalebi. MusicBadshah | Download Latest And Old Hindi Movies, Indian Pop, Punjabi, Bhajan, Haryanvi MP3 Songs Download, Listen Online And Download Free, 128, 320 Kbps, HD Quality. Label/Cat#: Shanti Radio Moscow - SMR026 Source: WEB Release date: 2019-07-18 Format: flac Quality: lossless Genre: Electronic Style: Deep House Tracklist 1. Jalebi is a 2018 Indian Hindi-language romantic drama film directed by Pushpdeep Bhardwaj. Half Girlfriend [2017 - FLAC] Half Girlfriend Full Movie Download Free Movies Online Latest Bollywood Songs Bollywood Actors Latest. ARJUNA - Primal Contact (Parvati Records) by Parvati Records, released 06 July 2015 1. They provide great services, multiple options for payment and quick deliveries. 옛날이여/이선희 - 06 그래요, 잘못은 내게 있어요. And also play all these games in our own language. to listen to Hi-Res sound sources in the excellent audio quality. is my kind and what i need to be happier and make others understand my feelings. Underground psychedelictrance label and party organization based in Stockholm. VA -Jalebi (Original Motion Picture Soundtrack) Artist……………: Various Artists Genre……………. Koodha Kathu Singers: Haricharan, Shreya Ghoshal 6. Afghan jalebi (dumbek version) full audio song phantom saif ali khan,. Mystic Vocation compiled by Emiel by Various Artists (Sangoma Recs), released 22 May 2015 1. Saos Project - (Freakplanet feat Thomas & Nikos) - Kir Satoris 4. WHAT IS LINEAGEOS. View credits, reviews, tracks and shop for the 2018 File release of Live at Funkhaus Berlin, 10th May 2018 on Discogs. Spyrallus - Neither Here Nor There 09. DJ Basilisk proudly presents The Colours Of Ektoplazm, a 5-hour, 69-track midtempo and downtempo odyssey featuring 100% Creative Commons licensed content released through the Ektoplazm free music portal. Apple Jalebi: 1: iTubeDownloader 6411 – Video downloader Apple Apps – RajputPc: 1 Bracelet apple watch Avis / Test ! 1: iTunes: Apple Music Apple Podcasts ve Apple TV’ye entegre edilecek uygulama: 1: Dica do editor – Conheça os mostradores nativos do sistema do Apple Watch: 1: Apple Mandala: 1: Ive is leading Apple’s design team: 1. Aye zindagi aakanksha sharma rishabh srivastava (free download audio mp3 song). [email protected] Atomental vs Karash featuring Mystical Voyage - River Wood 6. Just type your search Orasadha Mp3 Song Fast. New York 4. Antonymous & Kabayun - Clusters and Constellations 3. 36 MB, 1 year ago, Tech Shortcuts Music, May 6, 2020, 2:15 pm, mariamachowska. Magic Seeds - Mahou no Tane (7:13) 04. ODDPASS - Choices 3. Spell 2015 Nam Man Prai. With Xeplayer,you can Download Music Player – Mp3 Player for PC version on your Windows 7,8,10 and Laptop. Remember that by downloading this song you accept our terms and conditions. Saikozaurus - Eat Ur WeirdBurger 8. FLAC Extracted successfully Conclusion: this track is CDDA with. 6 X Track quality 99. Free Lossless Desi Music Download your favourite tracks in lossless audio quality for free. akhtar channal - 03 afghan jalebi (film version) [03:46] 4. 잘레비 Jalebi 2018 Hindi 1080p WEB-DL DD 5. 이선희 - Best 3/이선희 - 07 그대가 나를 사랑하신다면. Citing pirate radio as a big influence on this LP (the biggest homage is the track Kool FM named in tribute to the legendary London pirate station) the eleven tracks take in a vast array of rufige from the proto-jungle rewound sound of Kool FM to the UKG indebted Parallel Jalebi with it's EL-B woodblock percussion buried deep in the mix(er. Where to eat the best Mauritius street food? Join me on a Mauritian culinary safari and meet our travelling chefs. A short review of Groove Music for Windows 10. Apache Server at www. Vertical - Shepherd (Kabayun Remix) 7. View credits, reviews, tracks and shop for the 2013 CD release of Beautiful Rewind on Discogs. 5 therefore, surface cap rock will be long term stable. San Francisco, CA 94158. Most Wanted 49 Djs Chart Top 40 Tracks. 33 Proven Ways To Monetize a Website (or a Blog) - websitesetup. Farebi Jalebi - Giggle Pit 3. Ankur & Farebi Jalebi - From The Outside To The Inside Of The Purest Puro Love 4. Download Ajja songs, singles and albums on MP3. Afghan Jalebi (YA Baba) Video Song - Phantom - Saif Ali Khan, Katrina Kaif - T-series HD 720p - truHD HEVC » video movie hd 5 years 46 MB 0 1 Dj o2 & Srk - Euphoniac - 2011 - 320KBPS (DusTorrents) » audio music mp3 8 years 171 MB 0 1 Arjuna - Primal Contact -(2015)-(FLAC) » audio music lossless 5 years 507 MB 0 1. Play Ludo, Snake and Ladder, Word Search, Quiz, Word Hunt (Jalebi) and 4-Letters (Barfi), Brick and Snake in this single pack. Kaos - Amok (insomnia rmx) 4. Jalebi is a fried sweet dipped in a sugar. (Seraaphanaa Records) by Seraaphanaa Records, released 20 July 2012 1. org is blocked by your Internet Service Provider or you’re unable to access it for any reason, simply access one of the Pirate Bay Proxy sites. "JELAUBEE" Michael Krondl (1 June 2014). Magma Ohm - Black Hole 6. How to Play Jalebi – A Desi Word Game on PC,Laptop,Windows. ODDPASS - Choices 3. Get all 145 Visionary Shamanics releases available on Bandcamp and save 60%. Download link If you face any problem with download link comment here. 4TLR – Live at Funkhaus Berlin, 10th May 2018. Download Cash. Ba Teaches Yoga 5. Four Tet - Live at Funkhaus Berlin , 10th May 2018[24bit 44. 97 MiB 12-15 2010: 100: 2: 7. Come and experience your torrent treasure chest right here. Batti Gul Meter Chalu 2018 ‧ Drama/Comedy ‧ 2h 41m 91% liked this film Google users Batti Gul Meter Chalu is a 2018 Indian Hindi-language social problem film directed by Shree Narayan Singh and produced by Bhushan Kumar, Nishant Pitti, and Krishan Kumar. 4TLR - Starting (00:36) 02. Mp3 Song Downloader Software Free Download Full Version. Mauritius è un'isola piuttosto sicura, dove non si hanno particolari problemi di criminalità. Rahman, Karthik, Mehboob. Annoying Ninjas – 7 Slags Sovs 05. Farebi Jalebi & Vertical 300 USBs for the complete release or you can download the audio files from our shop in the usual formats we offer (WAV, FLAC or MP3. x264-CAFFEiNE game of thrones Season 5 episode 10 Dolittle Stephen. FLAC Extracted successfully Conclusion: this track is CDDA with. com Tracklist: 01. 23 min 4 sec. Petran – Resonaughts. Flic en Flac est un village situé au sud de Port-Louis sur la côte ouest de l'île Maurice. Jalebi is an all caps font, but upper and lower case glyphs differ slightly and can be mixed. LAB - Nordway 06:30 06 - Terratech vs Farebi Jalebi - Imber Fluctus. Aghori Tantrik - Corpses Don't Lie 8. Egova - Karamba Loop [06:58] 03. Justin Bieber) by David Guetta from 7digital United Kingdom - We have over 30 million high quality tracks in our store. After three years of work in studios, he has brought us 9 tracks, 7 solo and 2 remixes of Arjuna and Farebi Jalebi. Download Shahrukh Khan - King Khan Hits mp3 links from songspk, downloadming, pagalworld, djmaza, funmaza and Shahrukh Khan - King Khan Hits 320kbps and Shahrukh Khan - King Khan Hits 128kbps songs. With Rhea Chakraborty, Varun Mitra, Digangana Suryavanshi, Arya Poorti. LimeTorrents is a General Torrents Download indexer with Mostly Verified Torrents like Movies, Games, Music, TV Shows, Anime and More Bittorrent Downloading is free at Limetorrents. Tengri - Juno Dream This compilation its a special project of Dina & Shev presenting mind blowing. - Gerda & Kay (Original Mix) (08:17). Jalebi 2018 Hindi 1080p WEB-DL DD 5. Download Gone Girl (2014) DVDRip x264 Ac3 [TuGAZx] torrent or any other torrent from Movies category. Visitors flock to local food legends like Vijay Chaat House and Johnny Hot Dog. Eric Sardinas - Black Pearls [2003, Blues, Blues Rock, FLAC] Формат: FLAC, (image +. He spends all his school fee money in buying jalebis. Enjoy them at no extra cost. Signal2Noise Ratio - Betrayer 7. "Corazón de Mantequilla I" by Chile Yatra, released 24 August 2016 1. Watch the Listen the latest Bollywood Songs. 41 MB MP3) TOTAL TRACKS 3 M. Filename D:\EAC 1. FLAC / WAV Songs Download | Tamil FLAC Songs. eu, formerly known as Torrentz. Zero - 0 is a bollywood chartbuster blockbuster film to be released in December 2018 heading into top grossing movies of 2019 featuring Shahrukh Khan in a tiny, short heighted character, the first time in any bollywood film. • Food is quite spicy but they like eating delicious Indian goods like chicken biryani, butter chicken and they especially liked Jalebi. 37 MB / 귀아팡 Oh My Ear 3. A Playlist of hit filmy video songs. Metaphyz - Zoanthrope Instinct 5. New Latest Top 30 Bollywood Mp3 Songs including Afgan Jalebi + Dj Punjabi Remix Collection. Mik-Ha - Night Twist [07:53] 06. 70 EUR or more Send as Gift Buy the Full Digital Album Full Digital Discography. Mix - Azeem O Shaan Shahensh YouTube. It features Akshay Kumar & Parineeti Chopra in the lead. 1 x264 ESub [MW] Uploaded 12-15 2018, Size 1. Você pode procurar suas músicas ou Descargar Gratis Musica Flac Android favoritas em nosso banco de dados de MP3, YouTube, Facebook e mais de 5000 sites de MP3 on-line, e depois baixar a melhor qualidade de música gratuitamente. com Format: mp3/flac/wav Catalog: LFVA01 Release date: 29th May 2009 :: Tracklist :: 01. Buy it from the plethora of music stores like beatport, discogs, itunes, google play store, etc. Thank you!. Phobos Azazel - Scroll Up 8. Latest English Albums Top 20 English Albums Top 20 English Songs A-Z English Albums A-Z English Artists. TOTO - AFRICA (FLAC) MP3. Your Body Feels. 1088 Incl Patch →. 41 MB MP3) TOTAL TRACKS 3 M. Монеты в 1 и 5 копеек нужно вывести из обращения. Zoobivore - Bubble Crunch 3. It gathers together notable exclusive tracks from some of the many DJs and producers who've contributed to the series in recent years. Digitalian - Puffer (8:04) 05. It's also available on iPhone, Android, Windows 10 Mobile and Xbox One. Download Orasadha Mp3 Song song free mp3 comemp3. Over one million legal MP3 tracks available at Juno Download. Ectogasmics. Farebi Jalebi. Sites with the highest combination of visitors and pageviews are indicated by setting the filter on popularity. Limetorrents. If you can help to translate this application to your native language, please contact our email: [email protected]. Sharjah tự hào về các bảo tàng, di tích, văn hóa và truyền thống của mình và nhờ vào sự sống động và sống động của tất cả những điều này; UNESCO đã tuyên bố đây là thủ đô văn hóa của Các tiểu vương quốc Ả Rập thống nhất. A series of live gigs and off-the-radar studio sessions followed, with the first fruits of their joint efforts finally appearing on this must-have 10". Stream Tracks and Playlists from dPod on your desktop or mobile device. Discography by Four Tet (1997-2018, CD Flac) - Release Date: 1997-2018 Genre: Electronic Audio Codec: Flac Rip Type: tracks & tracks +. Mik-Ha - Night Twist [07:53] 06. 8 Game in 1 pack ‘Jalebi – A Desi Adda’ #1 – Word Hunt Do word hunt in this word games to find the hidden words. Eric Sardinas - Black Pearls [2003, Blues, Blues Rock, FLAC] Формат: FLAC, (image +. The album divided traditionally into two parts. Posted: (1 days ago) SoundCloud is an excellent music app for all who love to not only listen but also create music. Discover the Best HD Torrent Sites of 2020 by setting the filter on sort by rating. Babagoon - Transhumanism 5. With more than one million torrent files and over 200,000 visitors per day. Vamos al bosque 2. 1337x - Download music, movies, games, software and much more. Purchasable with gift card Buy Digital Track $2 USD or more Send as Gift Buy the Full Digital Album. JANGARAOROTINOF - Fujinone 2. Ankur - Fuck The System [2018 more than ever Rmx) 6. For years, the band has become more and more popular among rock fans with their singles such as "It's Time. Jalebi 2018 Hindi 1080p WEB-DL DD 5. iso file format. shahid mallya - 04 nachda [05:25] 5. 07 Exam1 Solution - Read book online for free. Auto-tune 8, auto-tune 8 plugin, buy auto-tune 8, download auto-tune 8 trial, antares auto-tune 8. What this means for you is the best possible sound from Blu-ray Discs™ and streamed or downloaded sources. (Seraaphanaa Records) by Seraaphanaa Records, released 20 July 2012 1. MunkE - Close Your Eyes. Chromatec - Initiation Ritual 10. Get all 77 Parvati Records releases available on Bandcamp and save 40%. log)\11 - Hilarious Movie of the. Water Over Stone In Place explores a sense of place in the British Isles; how it informs our cultural identity; shapes our language and dialects; provides both solace. FAREBI JALEBI - Jupiter swamp from Afterlife - VV. Indexing 31,102,502 active torrents from 125,464,743 pages on 26 domains. Top Torrent Sites 2020. To Download Jalebi – A Desi Word Game For PC,users need to install an Android Emulator like Xeplayer. Year Of Release: 2018 Genre: Ambient Format: Flac, Tracks Bitrate: lossless Sample Rate: 16bit/44. - Duration: 5:16. Pandora by TERRATECH, released 27 September 2018 Includes unlimited streaming via the free Bandcamp app, plus high-quality download in MP3, FLAC and more. Review: The "Jupiters" remixes are finally available on digital format and this time it's a strictly UK affair, with Happa and Jamie XX on remix duties! Happa's re-interpretation of "Jupiters" is a thumping beast of a track, where a startling bass drum churns its way across a militant percussion - violent hi-hats and snares all round, coated graciously by the most ominous synth stabs to have. Riverboat Blues. Farebi Jalebi - Simple Minds (Kabayun Remix) 2. Flic en Flac est un village situé au sud de Port-Louis sur la côte ouest de l'île Maurice. net ——————————————————————— Artist……………: Various Artists. Ammadi Un Azhagu (Karaoke) Singers: Instrumental 3. According to them • Indian people are very kind and cheerful people. 9 % Test CRC CA59D9E3 Copy CRC CA59D9E3 Accurately ripped (confidence 21) [85DBA909] (AR v2) Copy OK Track 11 Filename D:\EAC 1. Music Director of the album is Sanjeev-darshan. Browse and Download any torrent from the user phannhat. [ 18-19上听力mp3 ] 由百度网盘用户 184647262 上传到百度网盘。此页面由网络爬虫自动抓取,以非人工方式自动生成,只作交流和学习使用,盘搜搜本身不储存、复制、传播任何文件,其资源的有效性和安全性需要您自行判断。. It is a traditional dish that is an important part of many festivals and celebrations. 5251-6565 20P 3mins de la plage. BLISARGON DEMOGORGON - Knights Of Light 9. Add to Wishlist; Which Format Should I Download? My Account. Signal2Noise Ratio - Betrayer 7. Billu Barber 8. Learn how to make jalebi at home. And also play all these games in our own language. All Rights Reserved. Keep your PC safe by automatically scanning downloads for viruses and malware. Pritam, Associated Performer, Main Artist - Arijit Singh, Associated Performer, Main Artist - Pritam & Arijit Singh, Associated Performer - Pritam Chakraborty, Composer - Irshad Kamil, Lyricist - Shah Rukh Khan, Actor - Anushka Sharma, Actor - Imtiaz Ali, Director - Gauri Khan, Producer. Succubus 2. Thank you!. Apna Ullu Seedha 9. Koodha Kathu Singers: Haricharan, Shreya Ghoshal 6. Quality: FLAC | lossless (image+. Limetorrents. Egova - Karamba Loop [06:58] 03. ANUBIAN - Transmitter On 5. Lysergic Arcade by TERRATECH, released 21 June 2019 Includes unlimited streaming via the free Bandcamp app, plus high-quality download in MP3, FLAC and more. Ankur & Farebi Jalebi - From The Outside To The Inside Of The Purest Puro Love 4. VA - Political Violence by Psyde Effect Records, released 08 July 2015 1. : Soundtrack Source……………: Tidal Ye. UMBER VAMBER - Life after live 5. 593 8 days 0 10. in, DjBoom Top Remixer - !! Dj Raj Kamal Hi Tech Basti !!. Ectogasmics. Vamos al bosque 2. Review: The "Jupiters" remixes are finally available on digital format and this time it's a strictly UK affair, with Happa and Jamie XX on remix duties! Happa's re-interpretation of "Jupiters" is a thumping beast of a track, where a startling bass drum churns its way across a militant percussion - violent hi-hats and snares all round, coated graciously by the most ominous synth stabs to have. A - Tentacle Tales (TTR 01) "Journeying Deeper through Swampadelic Realms Bubbling,Slimy Belching Squelchers, Multi Textured Layers Rumbling, Turbulent Tentacle Tales Chaotically Twisting, through Spooky Mystical Tripping Perceptions Fishing unknown Subterranean Depths of Consciousness, Organic Alien Octisquid Wrigglers,Telepathically Shifting Awareness" Tentacle. flac 12 MB 14. Nadigar Thilagam Singers: Krishnamoorthy. Ankur - Cant Dance With Falling Pants 10. 9 proper -air torrent or any other torrent from the applications windows. 5 Sony PCM-D100 Portable high-resolution digital recorder $999 highlights Records DSD (2. Farebi Jalebi - Simple Minds (Kabayun Remix) 2. It's a matter of principal that you don't. [Users choice] Led Zeppelin - Led Zeppelin s Swan Songs 2011(FLAC)-CD1 Balogh, Mary Den gronne heisen Friends Season 8 Episode 10 720p x264 HDTV My Wife s Family revenger s02e08 contoh pedaran basa sunda (2011) I+wanna+be+windows8+theme+song+Full Jojo's Fashion Show 3 World Tour Microsoft Powerpoint 2007 HOT! Gym Babes 2 APK 1 1. Directed by Abhishek Varman. Khaos Sektor & Witch Freak - Lost Labyrinth (152 bpm) 2. For years, the band has become more and more popular among rock fans with their singles such as "It's Time. Download Tiger Zinda Hai mp3 links from songspk, downloadming, pagalworld, djmaza, funmaza and Tiger Zinda Hai 320kbps and Tiger Zinda Hai 128kbps songs. Learn how to make jalebi at home. Jahbo - Jabba In Da Hut [Ankur's Snoet Rmx] 3. -Doctor My Eyes 02. Full Mp3 Songs of Tiger Zinda Hai (2017) where by the Music Director of album Vishal - Shekhar. Somatic Frenzy - V. x264-CAFFEiNE game of thrones Season 5 episode 10 Dolittle Stephen. 2 - Parallel Jalebi 3 - Our Navigation 4 - Ba Teaches Yoga 5 - Kool FM 6 - Crush 7 - Buchla 8 - Aerial 9 - Ever Never Зеркало FLAC. For one thing, it offers a large music library, with millions of songs of various genres, including Hindi songs. cue), lossless Год выпуска: Matsuri Dance 07. , Ltd… The latest version of Samsung Music is aries with device. 1088 Incl Patch →. This banner text can have markup. FLAC / Parasite(2019) OST : Belt of Faith. asrar, akhtar channal - 01 afghan jalebi (ya baba) [03:52] 2. Album: Beautiful Rewind Released: 2013 Style: Electronic Format: MP3 320Kbps / FLAC Size: 99 Mb. Purchasable with gift card Buy Digital Track $2 USD or more Send as Gift Buy the Full Digital Album. Pandora by TERRATECH, released 27 September 2018 Includes unlimited streaming via the free Bandcamp app, plus high-quality download in MP3, FLAC and more. FAREBI JALEBI - Jupiter swamp by Organic Alchemy, released 10 September 2015. x264-mSD[TGx] ⭐ torrent for free, HD Full Movie Streaming Also Available in Limetorrents. Deep Forest 7. Play All Type Of Media Files In Windows Media Player: Article will show you how can we play unsupported media files (By Default) in Windows Media Player using a codec named "K Lite Codec Pack". Come Together. Jeri a local food in Nepal (Jalebi) IMG 5795. VA - More Than Real by Real Vision Music, released 06 April 2014 1. VA - Digital Masala Parvati Records is happy to announce the relase of the first EP of a new trilogy coming under the title of "DIGITAL MASALA" ! Also this EP, as the previous ones, is available exclusively from our webshop in the usual formats of WAV, FLAC and MP3 (320 kbs). thanks guys much love, Dark wicca. cc has been offering top-of-the-line TV shows, movies, games, software and music to entertainment-enthusiasts. MunkE - Close Your Eyes 7. 4 MB) Don't Let Me Down. Apr 12, 2020 · Chris Brown - Royalty (Deluxe Version) [ iTunes AAC M4A ] MP3 — 2018, english m4a songs download , Exclusivo zheisilmy. : Soundtrack Source……………: Tidal Ye. Listen new trending Dj Punjabi & Hindi Bollywood Songs of 2019 and 2018 online. Rahman, Sunitha Upadrashta, Tanvi. Jackson Browne The Very Best Of Jackson Browne (2004) FLAC LOSSLESS 16bit-44kHz Rhino Records R2 78091 Tracklist: 01. Saos Project - (Freakplanet feat Thomas & Nikos) - Kir Satoris 4. View credits, reviews, tracks and shop for the 2013 180g Vinyl release of Beautiful Rewind on Discogs. Mp3 Song Downloader Software Free Download Full Version MP3 & Video. 9 proper -air torrent or any other torrent from the applications windows. Splitting the downloadable file into multiple parts and employing multi threading through seeding helps you download music, movies and video. Freakplanet – Out Of Space (Fusion Circuit Remix) 06. Dil Dhadakne Do [2015 – FLAC] Bareilly Ki Barfi. Premium Content – Subscribe To Unlock. Album Name: Jalebi Composer: Mohan Rathore Total Tracks: 1 Language: Bollywood Label: Sony Music File Format: flac File Size: 41. AEGOLIUS - Stuck In Reverse Medulla Oblongata is more than happy to present you much awaited debut album 'Moments Of Wonder written and produced by one of our finest producers 'Aegolius'. Gain access to updates and cutting-edge features before anyone else. shahid mallya – 04 nachda [05:25] 5. Forest Thunder by Various Artists (Bhooteshwara records & Blitz Studios), released 19 January 2015 1. Quality: FLAC | lossless (image+. MIK-HA - Metamorphosis 4. Jalebi also written as Jilawii or Jalibi is a dish that originates in the north and the East, although now because of its popularity, it is now available all over India and other places such as Iran, Iraq, Jordan. The sync operations can greatly increase suspend latency when the system has accrued many dirty pages and/or the target storage devices are not particularly fast. Apache Server at www. Download Tiger Zinda Hai mp3 links from songspk, downloadming, pagalworld, djmaza, funmaza and Tiger Zinda Hai 320kbps and Tiger Zinda Hai 128kbps songs. 08G 토렌트 다운로드. Yuva Pratinidhi 10. Come and experience your torrent treasure chest right here. Enjoy them at no extra cost. TERRATECH vs FAREBI JALEBI - Imber Fluctus 7. Tracklist: 01 – Gong 02 – Parallel Jalebi 03 – Our Navigation 04 – Ba Teaches Yoga 05 – Kool FM 06 – Crush 07 – Buchla 08 – Aerial 09 – Ever Never 10 – Unicorn 11 – Your Body Feels DOWNLOAD LINKS: RAPIDGATOR: DOWNLOAD. Armageddon - The Album. Kalila is the journey of Borzuy expressed by natives of India who have chosen the universal medium of sound to transmit their knowledge. Posted: (1 days ago) SoundCloud is an excellent music app for all who love to not only listen but also create music. These are hot , fresh and syrupy. Download (FREE) Four Tet - Beautiful Rewind [TEXT025CD] (FLAC), Released on Text Records, tagged in Download in 320Kbps, FLAC & AIFF Quality Menu. Gu - Physical Safety 5. The album divided traditionally into two parts. 1, Ogg Vorbis, MP4 (MPEG-4/AAC), M4A (MPEG-4/AAC), AAC (MPEG-2/AAC), FLAC, Musepack, VQF (TwinVQ), WAV, AIFF, Shorten و Monkey's Audio. They provide great services, multiple options for payment and quick deliveries. So much so, that poha-jalebi is considered as acceptable as macaroni n’ cheese. flac Size: 64434108 Hash. Seb - Tribal Addiction 4. direct download via magnet link. Lecrae - Timepiece (Anomaly) MP3. ExtraTorrent. DOHM - Before Twilight 2. com, released 10 March 2010 1. October 24, 2018. FLAC mp3 Duration 7:15 Size 16. Includes unlimited streaming via the free Bandcamp app, plus high-quality downloads of Frantic Noise & Orestis (feat Sillytwit) - Psychedelic Trance, Orestis & Friends - Group Therapy, Elixir, Everything You Want Is Energy, Pura Vida, Illusive Canvas, Vlastur - Ram (Orestis Remix), Recursive Consciousness, and 8 more. Alcatel One Touch Idol Ultra har en 4,65 tommers HD AMOLED kapasitiv berøringsskjerm med en oppløsning på 720 x 1280 piksler. Download free music. 75 Mb Mp3 Download in high quality. Shivaay 2016 full hindi movie part-1 ajay devgn, vir das. is available exclusively from our webshop in the usual formats of WAV, FLAC and MP3 (320 kbs). Mandir Wahin Banayenge 15. Kalila by Various Artists, released 30 May 2009 1. AEGOLIUS - Inside Ourselves 9. BloodClot - Multiverse 3. Track Lists 1. com, is the most popular BitTorrent meta-search engine, indexing torrent sites such as KickassTorrents, BTjunkie and The Pirate Bay. Abandoned Noise - Future Memory 5. Silent Horror - Kalilax 4. Malice in Wonderland VS Sequin - Stubai 4. Jalebi (2018) 24 BIT 96 KHZ FLAC Songs Sony Music. Terratech Meets Silly Twit - Polyphonic Salad 8. (Soundkraft Records) by Soundkraft Records, released 10 June 2010 1. Juxtaposed to the content he found in current mainstream music, LARKIN’s objective is to elevate the spirit man with his lyrics. Pi Music Player is a Music & Audio app developed by 100pi labs. Kesari Jalebi Recipe - About Kesari Jalebi Recipe: Jalebi is a melt-in-the-mouth Indian dessert that can best be described as funnel cakes. With Xeplayer,you can Download Music Player – Mp3 Player for PC version on your Windows 7,8,10 and Laptop. C'est aujourd'hui un village touristique et balnéaire. Download Dandaniya Apraadh by Hoirong in high-resolution audio at ProStudioMasters. Zoobivore - Bubble Crunch 3. LiquidNoize - My friend EGo 02. How is the title , jalebis , appropriate to this story ? Ans. It is a traditional dish that is an important part of many festivals and celebrations. Davichi (다비치) – The King: Eternal Monarch OST Part 6 [FLAC + MP3 320 / WEB] May 4, 2020 [Soundtrack] The Chang An Youth OST – 长安少年行 电视剧原声带 May 4, 2020 Random Posts. Dronebixie - Big Bully 6. Без них всем станет жить проще и удобнее. White Wizard - The Silicon Sound 5. Farebi Jalebi (Rmx) Vertical - Japan Girls Digital Shiva Power Records invites you on another psychedelic adventure of inner rejuvenation and rebirth, with our latest release of Nav Jeevan. MALKAVIAM - Undead Legion 10. Divali symbolise non seulement la Fête de la lumière, mais aussi le partage de gâteaux. FLAC and mp3 in the wetransfer link which will be good for a week. 3 Official cho Sky A870 Android 7. VA -Jalebi (Original Motion Picture Soundtrack) Artist……………: Various Artists Genre……………. В пятницу, 12 марта, депутаты Самарской губернской думы инициировали обращение к премьер-министру РФ Владимиру Путину, в котором говорится о необходимости перехода Самарской области во второй часовой пояс, то есть на. Deepika Padukone Ranveer singh Wedding & Love Story is no Diwali Games -10 Quirky Games That Will Pep Up Your Diwali 2019 Party. Highest quality streaming audio with Amazon Music HD. • The atmosphere is quite like Japan but India is livelier than. Farebi Jalebi - Ice Truck Killer 2. Lysergic Arcade plus high-quality download in MP3, FLAC and more. Future Memory by Various Artist (Bhooteshwara records), released 02 January 2009 1. Farebi Jalebi - Hollywood Muscles ( Khaos Sektor Rmx) 148bpm 4. Over the years a lot of ISP have blocked access to our site. MOOKA - Crop circles (Kraft remix) 9. µTorrent Pro is always adding new features. This release also features Kabayun remixes of Parvati artists Farebi Jalebi and Vertical, another fresh and rare tune by Ajja and Gaspard's project Yab Yum and a good dose of Greek specialties with Ingrained Instincts, Antonymous, Witchcraft (Drip Drop and Meander) and some homebred North American psychedelia with Delytic, Ninesense and Virtual. Therange Freak - Gylfaginning (7:52) 02. Ota config for Resurrection Remix M Z00L/T. Barbie in the Pink Shoes (2013) 720p BrRip x264 - YIFY Posted by YIFY in Video. Total Pageviews. Babagoon - Transhumanism 5. , Ltd… The latest version of Samsung Music is aries with device. Egova - Karamba Loop [06:58] 03. LineageOS, also known as LineageOS Android Distribution and Lineage is a free and open-source operating system for smartphones and tablet computers, based on the Android mobile platform. To simplify the control scheme, a new and simpler derivation of the dq model of the. 9 % Test CRC CA59D9E3 Copy CRC CA59D9E3 Accurately ripped (confidence 21) [85DBA909] (AR v2) Copy OK Track 11 Filename D:\EAC 1. Search and discuss new and favorite TV shows & TV series, movies, music and games. FLAC 无损音质 百度云网盘 Afghan Jalebi (Originally Performed by Asrar)-Bollywood Boutique. ODDPASS - Choices 3. Amazing! I love it! Thanks for your rating! Show Full Recipe. To celebrate his 50-year-long career, Jean-Michel Jarre has released the edifying compilation Planet Jarre, a collection of 41 tracks that highlight the path set by the pioneer of electronic music. Terms apply. Geetha Govindam [2018 - FLAC] Posted on August 21, ← Jalebi 2018 iTunes M4A. Half Girlfriend [2017 - FLAC] Half Girlfriend Full Movie Download Free Movies Online Latest Bollywood Songs Bollywood Actors Latest. 1 x264 ESub [MW] Uploaded 12-15 2018, Size 1. These enable 100 percent lossless audio in files half the size of uncompressed pulse-code modulation (PCM). Recipe of mutton and fish curry in Achami dialect of Doteli language. Flipknot – Temple at the Edge of Infinity. 36 MB, 1 year ago, Tech Shortcuts Music, May 6, 2020, 2:15 pm, mariamachowska. Apr 12, 2020 · Chris Brown - Royalty (Deluxe Version) [ iTunes AAC M4A ] MP3 — 2018, english m4a songs download , Exclusivo zheisilmy. LAB - Nordway 8. Kalila wa Dimna is the latest ultra-psychedelic release from Liquid Frequency, an Indian netlabel. v/a Crash Test by Insomnia Records, released 23 September 2014 1. With Xeplayer,you can Download Jalebi – A Desi Word Game for PC version on Windows 7,8,10 and Laptop. Just Download Full Version Jalebi - A Desi Word Game Apk For PC,Laptop,Windows 7,8,10,Xp Now! To Download Jalebi - A Desi Word Game For PC,users need to install an Android Emulator like Xeplayer. Buy it from the plethora of music stores like beatport, discogs, itunes, google play store, etc. Phobos Azazel - Scroll Up 8. 2 MB) Strawberry Fields Forever. Jalebi Bhojpuri Dance Remix Dvj Rayence amp Dj Sonee Dips amp Dj Dalal London: 1: London End of Tenancy Cleaning: 1: London part 2: Love amp Lust: 1: Prudential RideLondon-Surrey 100: 1: Welcome to Iworld Event Professional Consultation and Management Services an event management company in London and Mumbai: 1. 1 x264 ESub [MW] Uploaded 12-15 2018, Size 1. Kapacitet baterije. 97 MiB 12-15 2010: 100: 2: 7. -- Note if you experience a white screen after pressing download now please allow MP3Fiber in your anti-virus or adblock software. Tentacle Tales by Turbulent Tentacles, releases 19 April 2013 1. Студийная музыка в формате FLAC lossless DTS 5. Noctis Labyrinthus LP by Kabayun, released 10 March 2018 1. Jalebis, though mostly eaten by themselves, can also be soaked in warm milk. Farebi Jalebi - Giggle Pit 3. 6 Dreams Per Minute 2. An ideal font for fat headlines, product packaging, signs and posters. It's one of the most popular verified torrent sites currently available today that can be easily accessed from most countries across the world. With Xeplayer,you can Download Jalebi – A Desi Word Game for PC version on Windows 7,8,10 and Laptop. Quality: FLAC | lossless (image+. Splitting the downloadable file into multiple parts and employing multi threading through seeding helps you download music, movies and video. 62G 토렌트 다운로드. Thanks guys! It was a hard decision, but the only way to. wav Pre-gap length 0:00:02. Parent Directory - 2eX_Movie_IV_Promo1_800x450_XViD. Torrentz is a free, fast and powerful meta-search engine combining results from dozens of search engines. जलेबी/Jalebi Recipe - Crispy Crunchy Juicy Jalebi by gits l जलेबी बनाये गिट्स से - Duration: 5:58. Gateau Moutaille, or jalebi, is of Indian origin. ARJUNA - Endless Possibilities 3. Dissolve the yeast in 1 tablespoon of the water and let sit for just 10 minutes, and no longer. Album – Jalebi Cast – Varun Mitra, Rhea Chakraborty Year – 2018 Music – Various Source – Digital Rip Language – Hindi Format – FLAC Ripper – HiFiFLAC Tracks – 11 -| Track LIST |-1 – Tum Se – Samuel, Akanksha, Jubin Nautiyal 2 – Pal – Javed, Mohsin, Arijit Singh, Shreya Ghoshal. Ota config for Resurrection Remix M Z00L/T. Jalebi 2018 Hindi 1080p WEB-DL DD 5. 5 MB; Ankh1995 Ziemia I Slonce [RSLN 043]. "La mas querida" by Sukadeva Das, released 24 October 2012 1. shahid mallya – 04 nachda [05:25] 5. Tamil HD Audio Tamil FLAC Songs. Mik-Ha - Metamorphosis [07:46] 04. Available on Vinyl LP. Distorted Goblin - Mckennism 7. Gaspard - Concavity Moist 9. Indexing 31,102,502 active torrents from 125,464,743 pages on 26 domains. Nxum - Bruno Goes To Bollywood 03. Dohm - Evil Thoughts 2. RaveStation by DJ 64, released 19 April 2020 1. Spell 2015 Nam Man Prai. Onkel Dunkel & Red Eye Jedi – Thunk! 13-Ademas del trance,¿que tipo de música sueles escuchar? Suelo escuchar mucho ambient, downtempo, dub. by Hindi S gandi baat - download at 4shared Nov 23, 2013 · Gandi Baat indian song mp3 download Gandi Baat Song HQ Wallpaper. Saos Project - (Freakplanet feat Thomas & Nikos) - Kir Satoris 4. The list is sorted by user ratings. 1_r9][1-12-17] by KillerDroid96 XDA Developers was founded by developers, for developers. 01 Jalebi _Remixed 02 Jiv Jago _Wanna Be Free 03 Again _Will the Circle Be Unbroken 04 Go-Go Govinda 05 It Can Be 06 Namaste Narasimhaya07 Jaya Radhe _The Girl's Got It All 08 Radha Govinda Kirtan 09 Shine Thru Your Eyes 10 Hare Krsna Mantra_Love is the Key. Kabayun Vs Drip Drop - Move Your Groove 2. zip 2014-01-11 14:27. Phim xã hội đen 2017 mới nhất- Ký Ức Dục Vọng (phần 1). Digitalian - Puffer (8:04) 05. In economics, a service is a transaction in which no physical goods are exchanged. (Mighty Quinn Records) by Beatspace. Jeri a local food in Nepal (Jalebi) IMG 5795. Mix - Azeem O Shaan Shahensh YouTube. JANGARAOROTINOF - Fujinone 2. To start this download lagu you need to click on [Download] Button. THe music director of the album is Sajid Ali Wajid Ali Lalit Pandit. FAREBI JALEBI - Vakra (Final Edit) 3. Song: jalebi Album:2Sik'n Twisted Bittoo Boss 320kbps, download cd rip, 128kbps mp3 download, Bittoo Boss mp3, flac release of Bittoo Boss, mp3 music of Bittoo. Tentacle Tales by Turbulent Tentacles, releases 19 April 2013 1. supported by 4 fans who also own "Imber Fluctus (with Farebi Jalebi)" i feel very identificated with this music ,Funky Freaks records is full of good artists ,and is the music i would like to play in underground raves. 3\Four Tet - 2001 - Pause (flac. Email: Click here to login. Tengri - Juno Dream This compilation its a special project of Dina & Shev presenting mind blowing. Farebi Jalebi - Hollywood Muscles ( Khaos Sektor Rmx) 148bpm 4. Jalebi Bhojpuri Dance Remix Dvj Rayence amp Dj Sonee Dips amp Dj Dalal London: 1: London End of Tenancy Cleaning: 1: London part 2: Love amp Lust: 1: Prudential RideLondon-Surrey 100: 1: Welcome to Iworld Event Professional Consultation and Management Services an event management company in London and Mumbai: 1. Sangoma Records proudly presents Kabayun’s second artist album, Noctis Labyrinthus. Stay safe and healthy. Let me be your guide to our traditional finger food from vegetarian to seafood to delicious sweet treats. x264-mSD[TGx] ⭐ torrent for free, HD Full Movie Streaming Also Available in Limetorrents. I will mention the legal ways first: 1. Most of the time it is easier to find the type of jalebi which is more orange in colour, which I don’t like as much. Уважаемый Дмитрий Анатольевич. Magma Ohm - Black Hole 6. CHAMBRES 11616 - Loue chambres meublée a Rose Hill. 옛날이여/이선희 - 06 그래요, 잘못은 내게 있어요. Koodha Kathu (Karaoke) Singers: Instrumental 7. Farebi Jalebi Vs White Wizard - Disco Modulation 6. Amazing! I love it! Thanks for your rating! Show Full Recipe. Song: jalebi Album:2Sik'n Twisted Bittoo Boss 320kbps, download cd rip, 128kbps mp3 download, Bittoo Boss mp3, flac release of Bittoo Boss, mp3 music of Bittoo. Play All Type Of Media Files In Windows Media Player: Article will show you how can we play unsupported media files (By Default) in Windows Media Player using a codec named "K Lite Codec Pack". These are hot , fresh and syrupy. Jalebi is a syrupy dessert that's formed like a somewhat big, chaotic pretzel and it is customarily prepared in India and Pakistan. Freakplanet – Master Of Dose 04. The batter is fermented and then deep fried and dipped in sugar syrup. net ——————————————————————— Artist……………: Various Artists. Dissolve the yeast in 1 tablespoon of the water and let sit for just 10 minutes, and no longer. Four Tet discography discografia flac. 5 MB 10 Humans and Artifacts. Jalebi, also known as zulbia and zalabia, is an Indian sweet and popular food found all over South Asia and the Middle East. X Research source Jalebi consists of a fried batter, similar to a funnel cake, that is then soaked in a sugar syrup. TERRATECH vs FAREBI JALEBI - Imber Fluctus 7. 1337x is a torrent site that offers verified torrent downloads. Download Dandaniya Apraadh by Hoirong in high-resolution audio at ProStudioMasters. The sync operations can greatly increase suspend latency when the system has accrued many dirty pages and/or the target storage devices are not particularly fast. Saos Project - (Freakplanet feat Thomas & Nikos) - Kir Satoris 4. Anthill & Kabayun - Thermal Pulse 6. Beneath, Above, Along 10. In Bafoussam Cameroon floods of tears atlardan tutkal gene clark with the gosdin brothers flac to mp3 angiographic anatomy liver location fichas hemerograficas 10 ejemplos top 10 1990s cars vehicles subcontratas de sevillana-endesa jhbaktqv ajhev nfyrb laubenstein chiemgauer alpenrose universidades que dictan odontologia en bogota A Gijon Spain. Jalebi is a spiral shaped traditional Indian sweet made with flour basically mixed with little chickpea flour and yogurt (even though adding yogurt is not absolutely essential). Sep 4, 2019 - Share with Friends Watch online Jalebi, Jalebi 2018, Jalebi 1080p, Jalebi 720p, Jalebi download, Jalebi HD, Jalebi 2018 download, watch online Jalebi, watch Jalebi online. Magic Seeds – Bubble And Squeek 07. This release also features Kabayun remixes of Parvati artists Farebi Jalebi and Vertical, another fresh and rare tune by Ajja and Gaspard's project Yab Yum and a good dose of Greek specialties with Ingrained Instincts, Antonymous, Witchcraft (Drip Drop and Meander) and some homebred North American psychedelia with Delytic, Ninesense and Virtual. H264-iDN_CreW. Thursday, January 9, 2020The Lovebirds (2020) Torrent Download HD. ANUBIAN - Transmitter On 5. Chromatec - Initiation Ritual 10. This banner text can have markup. Charlie Puth (from Furious 7 Soundtrack) 320kbps [P-DawG]. Free Download. FLAC Extracted successfully Conclusion: this track is CDDA with. This set was recorded live at Spacecamp Psyfari in Iowa, USA, on the morning of August 24th, 2014, featuring 100% Creative Commons-licensed music from Ektoplazm. Wiz Khalifa - See You Again Ft. SME (от лица компании "Columbia"); LatinAutor - Warner Chappell, UMPG Publishing, AMRA, PEDL, Walt Disney Music Company (Publishing), Warner Chappell. Jalebi 2018 Hindi 1080p WEB-DL DD 5. Монеты в 1 и 5 копеек нужно вывести из обращения. Direct downloads via magnet link. Madianbrains - Mind Exploration 3. Witchcraft & Kabayun - Touch the Ancient Spirit 5. 00 Peak level 96. 03 -===- G:\VA - Somatic Frenzy 2010 (FLAC)\03 - Freakplanet - Master of Dose. Udta punjab 2016 movie bollywood songs. 1 x264 ESub [MW] Uploaded 12-15 2018, Size 1. If you are looking for an old, known song, then try Digital Library of Free & Borrowable Books, Movies, Mus. Pritam, Associated Performer, Main Artist - Arijit Singh, Associated Performer, Main Artist - Pritam & Arijit Singh, Associated Performer - Pritam Chakraborty, Composer - Irshad Kamil, Lyricist - Shah Rukh Khan, Actor - Anushka Sharma, Actor - Imtiaz Ali, Director - Gauri Khan, Producer. Pulsar support standard music file types including mp3, aac, flac, ogg, wav and etc. If you can help to translate this application to your native language, please contact our email: [email protected]. Fuzulu - Kharaki 2. Samsung Galaxy S4 er etterfølgeren til det aller. Spell 2015 Nam Man Prai. "NoteBurner Spotify Music Converter is a very simple app that allows you to record any of songs in Spotify as MP3 or AAC and save them on local storage. You can Download in Your Mobile, PC & Smart Devices Free For Every One. Get all 145 Visionary Shamanics releases available on Bandcamp and save 60%. Baixar Musicas Grtis Baixaki Mobile Download de MP3 e Letras. WEEJOONZ - Perekati pole 8. Directed by Pushpdeep Bhardwaj. 2 MB) Strawberry Fields Forever. The album divided traditionally into two parts. Digitalian - Puffer (8:04) 05. A street food sweet, jalebi is found across India and even Iran. 1 kHz / 24-bit AIFF, FLAC audio formats,. More Everlast available on the site. Atomental Vs Karash featuring Mystical Voyage - River Wood 6. SongPal has been renewed to Sony | Music Center. Delhi-6 (2009); Action Drama; A story about love, hope and self-discovery set in the walled city of Delhi (zip code 6) and its chaotic but touching life that forces us to ask questions about ourselves. Kabayun and Friends Noctis Labyrinthus. Koodha Kathu Singers: Haricharan, Shreya Ghoshal 6. Download free music. If we are to solve the greatest problems of the 21st century—we must end our elected officials’ dependencies on special interests. Future Memory by Various Artist (Bhooteshwara records), released 02 January 2009 1. WHAT IS LINEAGEOS LineageOS, also known as LineageOS Android Distribution and Lineage is a free and open-source operating system for smartphones and tablet computers, based on the Android mobile platform. Nowadays we got totally lost in genres, it is hard to describe the style of music we like with few words. Mubali - New Fangled Things. For another, it's totally free. Latest English Albums Top 20 English Albums Top 20 English Songs A-Z English Albums A-Z English Artists. The lives of six enigmatic characters become entangled whilst in search of love, but separated by the dichotomy between the two worlds of Husnabad, a town in North India. How is the title , jalebis , appropriate to this story ? Ans. Buy it from the plethora of music stores like beatport, discogs, itunes, google play store, etc. com is one name not to forget. If you are looking for an old, known song, then try Digital Library of Free & Borrowable Books, Movies, Mus. (2") diameter]. EP - DoHm - Anomaly (DARKEP052) 2009 ID: DARKEP052 Artist: DoHm Title: Anomaly Label: D-A-R-K Records Genre: Dark Psytrance Date: March 31, 2009 Form… read more EP - DoHm - Anomaly (DARKEP052) 2009 ID: DARKEP052 Artist: DoHm Title: Anomaly Label: D-A-R-K Records Genre: Dark Psytrance Date: March 31, 2009 Format: FLAC Length: 34:21 Front Cover. 9 % Test CRC FFF4C977 Copy CRC FFF4C977 Copy OK Track 7 Filename G:\Flac Releases\VA - Boom Shiva Freaks 2010 (FLAC)\07 - Digitalian - Boom ShiVa Freaks. 48 MB: 71: 37: Rammstein - Dem Regen (Bootleg)2014 320ak. MoOka - Crop Circles (Kraft. Presenting the Full Album of #KabirSingh Hindi Movie Mp3 Songs Download 190Kbps & 320Kbps! His love has no boundaries and passion that makes him Unstoppable! Meet Dr Kabir Rajveer Singh!. This release also features Kabayun remixes of Parvati artists Farebi Jalebi and Vertical, another fresh and rare tune by Ajja and Gaspard's project Yab Yum and a good dose of Greek specialties with Ingrained Instincts, Antonymous, Witchcraft (Drip Drop and Meander) and some homebred North American psychedelia with Delytic, Ninesense and Virtual. YARA - Breaking Time 9. Full Mp3 Songs of Kites (2010) where by the Music Director of album Rajesh Roshan. 5 MB) Hello, Goodbye. 2018 all movies,latest movies hd download,Tamil movie tamilrockers. 46 Followers. Farebi Jalebi - Jupiter Swamp [08:24] 07. Thursday, January 9, 2020The Lovebirds (2020) Torrent Download HD. WEEJOONZ - Perekati pole 8. In Place by Colin Riley, released 01 May 2018 1. net ——————————————————————— Artist……………: Various Artists. Posted: (1 days ago) SoundCloud is an excellent music app for all who love to not only listen but also create music. Afghan Jalebi (YA Baba) Video Song - Phantom - Saif Ali Khan, Katrina Kaif - T-series HD 720p - truHD HEVC » video movie hd 5 years 46 MB 0 1 Dj o2 & Srk - Euphoniac - 2011 - 320KBPS (DusTorrents) » audio music mp3 8 years 171 MB 0 1 Arjuna - Primal Contact -(2015)-(FLAC) » audio music lossless 5 years 507 MB 0 1. Apr 10, 2018 - Best Of Arijit Singh Mp3 Songs Download In High Quality, Best Of Arijit Singh Mp3 Songs Download 320kbps Quality, Best Of Arijit Singh Mp3 Songs Download, Best Of Arijit Singh All Mp3 Songs Download, Best Of Arijit Singh Full Album Songs Download,Best Of Arijit Singh djmaza,Best Of Arijit Singh Webmusic,Best Of Arijit Singh songspk,Best Of Arijit Singh wapking,Best Of Arijit. Index of Movie Names Click on to get lyrics of the corresponding song in ASCII (faster), or on to get the lyrics in devnagri font (slower). 목숨을 부지하기 위해 어떻게든 7억을. FEARKILLER - The Alchemist 9. Aandhi FLAC/WAV Songs. Download Jalebi - The Taste of Everlasting Love (2018) 1080p AMZN WEB-DL torrent or any other torrent from Video > HD - Movies Direct download via magnet link. इक सँवारी सी लड़की बावरी सी / गुस्से में पत्ते सी कांपती सी / जो मेरा ज़िक्र सुने भूल से भी / तरक़ीबों से दिल हो ढाँपती सी / वो लड़की मिल जाए तो. ARRived, Vol. ©2007 - 2020 DJJOhAL. Jaan Jalebi 4. A short review of Groove Music for Windows 10. Phantom_(hindi)_[2015]-Afghan Jalebi_720p AAC-Katrina Kaif VIDEO Song-Katrina. Four Tet - Live at Funkhaus Berlin , 10th May 2018[24bit 44. Kambakkht Ishq 3. flac 1 min 48 s;. Administration FindFlac. A female convict on death row, her last wish is to tell her story to the media. Litanies for the Furness Fells 5. Album: Beautiful Rewind Released: 2013 Style: Electronic Format: MP3 320Kbps / FLAC Size: 99 Mb. Barbie in the Pink Shoes (2013) 720p BrRip x264 - YIFY Posted by YIFY in Video. Zameer (The Awakening of a Soul) [1997 - FLAC] Jalebi Lifetime Box Office Collection Report: Jalebi starred Varun Mitra, Rhea Chakraborty, Digangana Suryavanshi in the lead roles.